<?xml version="1.0" standalone="no"?>
<!DOCTYPE svg PUBLIC "-//W3C//DTD SVG 1.1//EN" "http://www.w3.org/Graphics/SVG/1.1/DTD/svg11.dtd" >
<svg xmlns="http://www.w3.org/2000/svg">
<metadata></metadata>
<defs>
<font id="opendyslexicregular" horiz-adv-x="1328" >
<font-face units-per-em="2048" ascent="1638" descent="-410" />
<missing-glyph horiz-adv-x="800" />
<glyph unicode="&#xfb01;" horiz-adv-x="1391" d="M521 1120v99q0 194 176 194l176 40v153l-185 -20q-185 -31 -273.5 -120.5t-88.5 -267.5v-78h-176v-133h176l-20 -987h245l-30 987h505l-20 -987h235l-30 1120h-690zM1211 1321v233h-185v-233h185z" />
<glyph unicode="&#xfb02;" horiz-adv-x="1462" d="M1201 1556h-512q-189 0 -276 -85.5t-87 -272.5l-10 -78h-166v-143h166l-30 -977h295l-60 977h293v143h-293l-10 119q0 104 38.5 144t137.5 40h329v-1423h295v210l-110 -2v1348z" />
<glyph horiz-adv-x="0" />
<glyph unicode="&#xd;" horiz-adv-x="2048" />
<glyph horiz-adv-x="0" />
<glyph horiz-adv-x="0" />
<glyph unicode=" "  horiz-adv-x="800" />
<glyph unicode="&#x09;" horiz-adv-x="800" />
<glyph unicode="&#xa0;" horiz-adv-x="800" />
<glyph unicode="!" horiz-adv-x="572" d="M150 481h272l-30 357l-10 655h-193l-20 -655zM412 0l-20 254h-213l-20 -254h253z" />
<glyph unicode="&#x22;" horiz-adv-x="901" d="M150 906h201l-11 587h-179zM550 906h201l-11 587h-180z" />
<glyph unicode="#" horiz-adv-x="1701" d="M625 1055h-361v-154h322l-84 -334h-352v-153h315l-104 -414h161l103 414h293l-103 -414h160l104 414h357v153h-318l82 334h351v154h-312l103 415h-160l-105 -415h-292l104 415h-162zM664 567l84 334h291l-82 -334h-293z" />
<glyph unicode="$" horiz-adv-x="1268" d="M715 -294l-15 303q189 12 302 109t116 263q-7 155 -107 237.5t-328 121.5l8 466q187 -11 348 -98l3 155q-160 57 -349 68l4 232l-100 2l-4 -235q-204 -10 -314.5 -102t-113.5 -255q7 -152 102 -239.5t304 -126.5l-7 -395q-207 5 -410 137l-4 -240q206 -93 409 -99 l-24 -301zM575 1200l-10 -450q-125 21 -191.5 79t-66.5 144q0 89 72 151.5t196 75.5zM685 205l-10 373q124 -24 185 -76.5t61 -139.5q0 -25 -6.5 -45t-14.5 -34t-27.5 -26t-33.5 -18.5t-45.5 -13.5t-49.5 -10t-59 -10z" />
<glyph unicode="%" horiz-adv-x="2020" d="M494 1520q-158 0 -251 -110t-93 -296q0 -188 92.5 -297.5t251.5 -109.5t252.5 109t93.5 298q0 186 -94 296t-252 110zM624 -29l943 1549h-161l-943 -1549h161zM494 1393q86 0 136 -73.5t50 -199.5q0 -129 -49.5 -201.5t-136.5 -72.5t-136 72.5t-49 201.5q0 127 49.5 200 t135.5 73zM1526 784q-159 0 -252.5 -109.5t-93.5 -297.5q0 -187 93 -296.5t253 -109.5q157 0 250.5 110t93.5 296q0 187 -93 297t-251 110zM1526 657q85 0 134.5 -69.5t49.5 -190.5t-49.5 -190.5t-134.5 -69.5q-87 0 -136.5 69.5t-49.5 190.5q0 122 49.5 191t136.5 69z" />
<glyph unicode="&#x26;" horiz-adv-x="1705" d="M1138 415l-548 540q-93 96 -120 146q-30 51 -30 102q0 88 65.5 143.5t170.5 55.5q136 0 313 -96l70 142q-170 72 -333 72q-184 0 -295 -98.5t-111 -260.5q0 -119 98 -248q-268 -198 -268 -452q0 -215 153 -352.5t394 -137.5q257 0 463 176l143 -147h252l-279 285 q55 74 87.5 167t40.5 148.5t18 171.5q2 19 3 29h-186q-7 -132 -26.5 -218t-74.5 -168zM471 843l534 -548q-146 -128 -337 -128q-161 0 -268 98t-107 245q0 175 178 333z" />
<glyph unicode="'" horiz-adv-x="470" d="M150 938h170v555h-170v-555z" />
<glyph unicode="(" horiz-adv-x="724" d="M687 1547l-160 14q-340 -441 -377 -881q0 -467 188 -936l210 -14q-103 218 -142.5 437.5t-51.5 495.5q19 441 333 884z" />
<glyph unicode=")" horiz-adv-x="724" d="M355 1573l-159 14q104 -224 144 -448.5t40 -481.5q-42 -458 -343 -887l229 -14q73 135 118 225.5t94 210t72.5 230.5t23.5 218q-1 245 -49.5 473t-169.5 460z" />
<glyph unicode="*" horiz-adv-x="1272" d="M688 1143v377l-154 -40l40 -337l-336 203l-88 -139l389 -154l-359 -195l98 -138l296 243v-377l154 30l-40 347l336 -203l98 138l-399 155l359 194l-18 139z" />
<glyph unicode="+" horiz-adv-x="1582" d="M707 727h-557v-170h557v-557h168v557h557v170h-557v557h-168v-557z" />
<glyph unicode="," horiz-adv-x="653" d="M150 -288h129l224 320v212h-251v-212z" />
<glyph unicode="-" horiz-adv-x="846" d="M689 488l7 165l-539 -10l-7 -164z" />
<glyph unicode="." horiz-adv-x="599" d="M449 0v323h-299v-323h299z" />
<glyph unicode="/" horiz-adv-x="1028" d="M380 -198l498 1667l-150 5l-578 -1664z" />
<glyph unicode="0" horiz-adv-x="1332" d="M676 1520q-250 0 -383 -197.5t-143 -577.5q0 -379 128 -576.5t378 -197.5t383 197.5t143 576.5q0 380 -128 577.5t-378 197.5zM676 1440q314 0 314 -550q-21 -279 -100.5 -414t-233.5 -135q-155 0 -224 131.5t-69 417.5q0 550 313 550z" />
<glyph unicode="1" horiz-adv-x="1189" d="M1039 0v280h-330v1213h-202l-357 -72v-184l359 72v-1029h-330v-280h860z" />
<glyph unicode="2" horiz-adv-x="1248" d="M1098 290h-495q34 128 168 268q128 132 159 167q89 110 124.5 192.5t35.5 176.5q0 194 -138 310t-370 116q-174 0 -422 -99v-204q239 133 426 133q134 0 217.5 -75t83.5 -194q0 -72 -38 -148q-43 -84 -121 -168t-243 -210q-174 -132 -335 -265v-290h948v290z" />
<glyph unicode="3" horiz-adv-x="1283" d="M150 360v-315q213 -74 399 -74q283 0 433.5 122.5t150.5 360.5q0 146 -82.5 243t-225.5 108q131 33 202 118.5t71 209.5q0 178 -134 282.5t-364 104.5q-177 0 -405 -64v-160q221 74 387 74q152 0 233.5 -61.5t81.5 -176.5q0 -112 -79 -171.5t-228 -59.5h-182v-166h174 q160 0 255 -72.5t95 -178.5q0 -52 -99 -138q-100 -85 -290 -85q-222 0 -393 99z" />
<glyph unicode="4" horiz-adv-x="1388" d="M150 422h654l-20 -422h271l-20 422h203v168h-203l-10 903h-254l-621 -946v-125zM314 590l510 797l-10 -797h-500z" />
<glyph unicode="5" horiz-adv-x="1266" d="M213 1493v-750q163 74 326 74q176 0 270.5 -77t94.5 -231q0 -39 -25.5 -83t-70 -83.5t-116 -65.5t-153.5 -26q-210 0 -389 97v-313q207 -64 393 -64q273 0 423 133.5t150 374.5q0 234 -146 371t-396 137q-68 0 -196 -30v386h628v150h-793z" />
<glyph unicode="6" horiz-adv-x="1331" d="M1084 1276v184q-168 60 -315 60q-283 0 -451 -210.5t-168 -564.5q0 -377 137 -575.5t396 -198.5q226 0 362 139t136 369q0 235 -130.5 371.5t-355.5 136.5q-107 0 -196 -46.5t-148 -133.5q15 273 120.5 408t305.5 135q151 0 307 -74zM683 827q136 0 215.5 -93t79.5 -255 q0 -101 -79.5 -159.5t-215.5 -58.5t-215.5 58.5t-79.5 159.5q0 162 79.5 255t215.5 93z" />
<glyph unicode="7" horiz-adv-x="1250" d="M917 1343l-550 -1343h361l372 1407v86h-950v-150h767z" />
<glyph unicode="8" horiz-adv-x="1364" d="M480 795q-149 -34 -239.5 -134t-90.5 -241q0 -215 141.5 -332t390.5 -117t390.5 117t141.5 332q0 141 -90 241t-239 134q127 32 190.5 119.5t63.5 218.5q0 164 -120 265.5t-337 101.5q-216 0 -336.5 -101.5t-120.5 -265.5q0 -131 64 -218.5t191 -119.5zM406 1174 q0 99 74 162.5t202 63.5q127 0 202 -64t75 -162q0 -116 -73.5 -181t-203.5 -65q-131 0 -203.5 65t-72.5 181zM682 729q145 0 227.5 -77t82.5 -212q0 -81 -87 -150t-223 -69t-222.5 68.5t-86.5 150.5q0 135 82.5 212t226.5 77z" />
<glyph unicode="9" horiz-adv-x="1330" d="M246 335v-304q168 -60 316 -60q283 0 450.5 210.5t167.5 563.5q0 378 -136.5 576.5t-395.5 198.5q-226 0 -362 -139t-136 -369q0 -235 130.5 -370.5t354.5 -135.5q108 0 197 46t147 132q-5 -91 -19.5 -158t-41 -114t-59.5 -76.5t-82 -46t-100.5 -22.5t-123.5 -6 q-151 0 -307 74zM631 806q-62 0 -104 2.5t-86.5 11t-73 24.5t-52 42t-34 65.5t-10.5 92.5q0 161 97 254.5t263 93.5q165 0 262 -93.5t97 -254.5q0 -63 -17 -107.5t-45 -70t-77 -39t-97.5 -17.5t-122.5 -4z" />
<glyph unicode=":" horiz-adv-x="561" d="M411 816v285h-261v-285h261zM411 0v306h-261v-306h261z" />
<glyph unicode=";" horiz-adv-x="629" d="M479 803v293h-243v-293h243zM150 -328h143l182 355v191h-234v-191z" />
<glyph unicode="&#x3c;" horiz-adv-x="1637" d="M170 817l-20 -226l1237 -574l21 241l-997 453l1060 276l16 181z" />
<glyph unicode="=" horiz-adv-x="1582" d="M1432 762v168h-1282v-168h1282zM1432 352v200h-1282v-200h1282z" />
<glyph unicode="&#x3e;" horiz-adv-x="1637" d="M171 378l-21 -241l1318 351l19 226l-1236 575l-16 -182l994 -455z" />
<glyph unicode="?" horiz-adv-x="1087" d="M601 401v123q0 52 3 82q6 60 37 103q15 20 46 73l78 86q90 97 131 163t41 136q0 160 -107 256.5t-290 96.5q-204 0 -390 -113v-158q199 137 355 137q105 0 172 -68t67 -161q-9 -46 -41 -81t-117 -105l-100 -89q-87 -84 -116.5 -153t-29.5 -174v-154h261zM597 -10v284 h-263v-284h263z" />
<glyph unicode="@" horiz-adv-x="2070" d="M1322 238v-154q280 6 439 158t159 415q0 249 -154 451q-123 160 -304.5 247t-393.5 87q-189 0 -358 -67.5t-298 -194.5q-126 -125 -194 -290t-68 -347q0 -189 67 -353.5t195 -289.5t292 -190.5t349 -65.5q152 0 299.5 51.5t272.5 148.5l-90 181q-203 -158 -482 -158 q-166 0 -291.5 41.5t-226.5 141.5q-71 75 -111.5 125t-73.5 109t-46 119.5t-13 139.5q0 193 88.5 358.5t245.5 267.5q194 129 445 129q176 0 325.5 -69.5t253.5 -200.5q127 -160 127 -375q0 -177 -82.5 -288.5t-228.5 -133.5v736h-143v-131q-118 151 -318 151 q-171 0 -279 -125t-108 -325t107.5 -324.5t279.5 -124.5q201 0 318 150zM747 619q0 126 71.5 199.5t192.5 73.5q122 0 194 -74t72 -199q0 -127 -70.5 -200.5t-193.5 -73.5q-124 0 -195 73t-71 201z" />
<glyph unicode="A" horiz-adv-x="1668" d="M423 0l76 243h673l56 -243h290l-589 1493h-189l-590 -1493h273zM560 481l274 828l275 -828h-549z" />
<glyph unicode="B" horiz-adv-x="1379" d="M150 0h536q253 0 398 109.5t145 308.5q0 156 -95 255.5t-289 131.5q124 20 188 101t64 218q0 177 -125 273t-356 96h-466v-1493zM352 1357h299q144 0 218.5 -69t74.5 -186q0 -225 -293 -225h-299v480zM352 713h324q162 0 242 -66q78 -67 78 -117q0 -134 -75 -184 t-245 -50h-324v417z" />
<glyph unicode="C" horiz-adv-x="1504" d="M1354 1165v213q-208 142 -475 142q-339 0 -534 -207.5t-195 -567.5q0 -359 195 -566.5t534 -207.5q263 0 475 144v351q-202 -189 -463 -189q-265 0 -394.5 107t-133.5 361q0 296 136 452.5t392 156.5q261 0 463 -189z" />
<glyph unicode="D" horiz-adv-x="1555" d="M150 0h415q432 0 636 181t204 567q0 384 -203 564.5t-637 180.5h-415v-1493zM362 1327h244q306 0 451 -138.5t145 -420.5q-27 -119 -63.5 -190.5t-105.5 -119t-169 -65t-258 -17.5h-244v951z" />
<glyph unicode="E" horiz-adv-x="1262" d="M1112 0v310h-760v401h711v170h-711v442h742v170h-944v-1493h962z" />
<glyph unicode="F" horiz-adv-x="1158" d="M402 0l-20 673h572v210h-582l20 430h616v180h-818l-40 -1493h252z" />
<glyph unicode="G" horiz-adv-x="1604" d="M1224 534v-161q-72 -76 -312 -76q-142 0 -238.5 21.5t-167 74.5t-104.5 144t-39 228q0 609 549 609q279 0 503 -191v195q-226 142 -520 142q-351 0 -548 -204.5t-197 -570.5q0 -365 197 -569.5t548 -204.5q323 0 559 168v611h-550v-216h320z" />
<glyph unicode="H" horiz-adv-x="1458" d="M382 0v501h694v-501h232l-20 1493h-212v-712h-694v712h-212l-20 -1493h232z" />
<glyph unicode="I" horiz-adv-x="542" d="M150 0h242q-12 225 -17.5 455.5t-8.5 582t-4 455.5h-172q-2 -124 -6 -365t-6.5 -390t-9.5 -356.5t-18 -381.5z" />
<glyph unicode="J" horiz-adv-x="926" d="M564 1495l-54 -1419q-3 -72 -68 -127t-190 -61l-102 22l4 -330l117 -12q239 4 342.5 115.5t108.5 379.5l54 1418z" />
<glyph unicode="K" horiz-adv-x="1505" d="M412 0l-40 719l507 -719h476l-794 797l741 696h-260l-670 -631l20 631h-202l-40 -1493h262z" />
<glyph unicode="L" horiz-adv-x="1239" d="M1069 0l20 310h-717v1183h-202l-20 -1493h919z" />
<glyph unicode="M" horiz-adv-x="1706" d="M406 0l-40 1311l365 -1074h243l365 1074l-40 -1311h257l-30 1493h-281l-393 -886l-371 886h-301l-30 -1493h256z" />
<glyph unicode="N" horiz-adv-x="1450" d="M406 0l-60 1249l662 -1249h292v1493h-186l-30 -1209l-642 1179h-252l-40 -1463h256z" />
<glyph unicode="O" horiz-adv-x="1682" d="M842 1520q-315 0 -503.5 -210.5t-188.5 -564.5t188.5 -564t503.5 -210q314 0 502 210.5t188 563.5q0 354 -188 564.5t-502 210.5zM842 1356q220 0 348.5 -164.5t128.5 -446.5q0 -113 -32.5 -190.5t-97.5 -120.5t-148 -61t-199 -18t-199.5 18t-149 61t-98 120.5 t-32.5 190.5q0 282 129.5 446.5t349.5 164.5z" />
<glyph unicode="P" horiz-adv-x="1314" d="M392 0l20 580h244q249 0 378.5 121.5t129.5 345.5q0 219 -128.5 332.5t-379.5 113.5h-446l-60 -1493h242zM422 1407h253q151 0 233.5 -73t82.5 -207q0 -135 -82.5 -208t-233.5 -73h-273z" />
<glyph unicode="Q" horiz-adv-x="1751" d="M1601 -264l-316 351q41 46 71.5 86t65.5 102t57.5 126.5t37.5 154t15 189.5q0 354 -188 564.5t-502 210.5q-315 0 -503.5 -210.5t-188.5 -564.5q0 -233 85.5 -409t240 -270.5t356.5 -94.5q25 0 84 4l211 -239h474zM806 341l-94 14q-42 5 -83 15.5t-91.5 38.5t-87 68.5 t-62 110t-25.5 157.5q0 282 129.5 446.5t349.5 164.5t348.5 -164.5t128.5 -446.5q0 -232 -188 -336q-122 16 -242 71z" />
<glyph unicode="R" horiz-adv-x="1463" d="M1313 0l-205 408q-123 250 -250 292q107 37 166.5 130.5t59.5 232.5q0 213 -124.5 321.5t-353.5 108.5h-456v-1493h242v631h150q122 0 191 -50t142 -198l151 -383h287zM372 1387h254q63 0 115.5 -15.5t99.5 -50.5t73.5 -100.5t26.5 -157.5q0 -89 -98 -157.5t-217 -68.5 h-254v550z" />
<glyph unicode="S" horiz-adv-x="1351" d="M1111 1247v197q-227 76 -437 76q-245 0 -384.5 -114t-139.5 -312q0 -171 101 -267t327 -141l123 -24q144 -29 216.5 -89t72.5 -126q0 -74 -100 -138t-261 -64q-225 0 -473 139v-318q258 -95 473 -95q281 0 426.5 112t145.5 329q0 183 -108 291t-333 151l-122 25 q-164 30 -224.5 80.5t-60.5 150.5q0 118 89.5 182t254.5 64q186 0 414 -109z" />
<glyph unicode="T" horiz-adv-x="1563" d="M680 1343l-40 -1343h283l-40 1343l530 -20v170h-1263v-170z" />
<glyph unicode="U" horiz-adv-x="1443" d="M150 1493v-932q0 -292 144.5 -441t427.5 -149q282 0 426.5 149t144.5 441v932h-213l19 -767q6 -236 -87 -343.5t-290 -107.5q-198 0 -291.5 107.5t-87.5 343.5l20 767h-213z" />
<glyph unicode="V" horiz-adv-x="1668" d="M1518 1493h-210l-474 -1117l-473 1117h-211l520 -1493h329z" />
<glyph unicode="W" horiz-adv-x="2190" d="M798 0l298 806l275 -806h294l375 1493h-195l-343 -1092l-324 712h-177l-353 -692l-304 1072h-194l334 -1493h314z" />
<glyph unicode="X" horiz-adv-x="1578" d="M150 0h328l313 535l310 -535h327l-492 696l460 797h-217l-373 -635l-371 635h-217l445 -796z" />
<glyph unicode="Y" horiz-adv-x="1559" d="M638 0h273v511l498 982h-217l-411 -764l-414 764h-217l488 -982v-511z" />
<glyph unicode="Z" horiz-adv-x="1519" d="M1094 1323l-944 -1039v-284h1219v300h-967l944 1039v154h-1173v-170h921z" />
<glyph unicode="[" horiz-adv-x="674" d="M574 -270v223h-240v1460h240v143h-424v-1826h424z" />
<glyph unicode="\" horiz-adv-x="931" d="M571 -206l210 -8l-461 1701l-170 5z" />
<glyph unicode="]" horiz-adv-x="674" d="M100 1413h239v-1470h-239v-213h424v1826h-424v-143z" />
<glyph unicode="^" horiz-adv-x="1582" d="M150 936h311l330 455l330 -455h311l-563 557h-156z" />
<glyph unicode="_" horiz-adv-x="1364" d="M150 -264v-179h1064v179h-1064z" />
<glyph unicode="`" horiz-adv-x="779" d="M356 1344h273l-282 374h-197z" />
<glyph unicode="a" horiz-adv-x="1246" d="M1096 0v639q0 256 -120 382t-363 126q-179 0 -381 -78v-150q169 92 362 92q159 -10 238.5 -83.5t79.5 -202.5v-18h-258q-504 0 -504 -381q0 -162 101.5 -258.5t273.5 -96.5q258 0 387 189v-160h184zM809 572v-41q0 -90 -13 -145t-46.5 -85t-78 -40t-118.5 -10 q-57 0 -93.5 4t-72 16t-56 38t-27.5 67q1 73 29 113.5t102 61.5t208 21h166z" />
<glyph unicode="b" horiz-adv-x="1302" d="M355 1556l-20 -586q56 96 142.5 136.5t215.5 40.5q204 0 331.5 -162.5t127.5 -425.5t-127.5 -425.5t-331.5 -162.5q-108 0 -183.5 15t-124 46.5t-77 71.5t-49.5 99q-18 39 -31 214.5t-29.5 551.5t-28.5 587h185zM1035 601q-6 199 -81 307t-218 108q-147 0 -230 -111 t-83 -313q6 -47 10 -73t12.5 -60t18 -51.5t25.5 -39t37.5 -32t51.5 -20.5t69 -13.5t89 -3.5q66 5 112.5 20t86 48t64 91t36.5 143z" />
<glyph unicode="c" horiz-adv-x="1186" d="M1036 915v162q-150 70 -323 70q-262 0 -412.5 -157t-150.5 -431q0 -270 149 -429t402 -159q181 0 335 72l-4 289q-30 -16 -60.5 -26t-68.5 -14t-59 -5t-69.5 0t-61.5 1q-182 10 -263.5 69.5t-95.5 201.5q0 208 95 325t272 117q158 0 315 -86z" />
<glyph unicode="d" horiz-adv-x="1321" d="M987 1556l-20 -606q-114 197 -359 197q-204 0 -331 -162.5t-127 -425.5t127 -425.5t331 -162.5q245 0 359 197v-168h184l20 1556h-184zM282 579q0 203 83.5 318.5t229.5 115.5q279 0 290 -420q-3 -92 -21 -149t-57 -87t-88.5 -40.5t-128.5 -10.5q-145 0 -215 63t-93 210z " />
<glyph unicode="e" d="M1178 606v70q-19 237 -134.5 349t-343.5 122q-251 0 -395.5 -160t-154.5 -438q0 -264 155.5 -416t425.5 -162q211 0 415 86l-4 254q-47 -25 -94.5 -39.5t-107.5 -20t-93.5 -6.5t-108.5 -1q-80 4 -135 14t-107.5 33t-83.5 62t-50 102t-20 151h836zM1018 766h-656 q0 51 24.5 101.5t67.5 91t108 66t139 25.5q65 0 122.5 -26.5t96.5 -68.5t64.5 -91t33.5 -98z" />
<glyph unicode="f" horiz-adv-x="964" d="M803 1516l-164 20q-67 0 -122 -18.5t-98.5 -57t-68 -105.5t-24.5 -157l-10 -78h-166v-183h166l-30 -937h265l-30 937h293v183h-293l-10 99q0 100 27 132t99 32l166 -20v153z" />
<glyph unicode="g" horiz-adv-x="1321" d="M987 1120l-20 -170q-113 197 -359 197q-207 0 -332.5 -157t-125.5 -417q0 -259 126 -416t332 -157q118 0 208 46.5t141 120.5v-61q-9 -43 -25.5 -86.5t-47.5 -90.5t-71 -82.5t-99 -58.5t-128 -23q-164 0 -321 86v-328q159 -59 350 -59q135 0 228 33t159.5 111t99.5 208 t39 323l30 981h-184zM887 584q0 -78 -16 -131.5t-41 -83.5t-70.5 -46.5t-88.5 -20.5t-112 -4q-55 0 -89 2.5t-69.5 12.5t-55.5 28.5t-38.5 50.5t-29 78.5t-17.5 113.5q0 200 82.5 310t230.5 110q149 0 231.5 -110t82.5 -310z" />
<glyph unicode="h" horiz-adv-x="1278" d="M1128 0l-20 676q0 232 -99 351.5t-292 119.5q-231 0 -362 -201l20 610h-185l-40 -1556h225l-20 633q0 167 87 270.5t234 103.5q131 0 193.5 -77t54.5 -260l-30 -670h234z" />
<glyph unicode="i" horiz-adv-x="534" d="M354 1323l-10 233h-164l-10 -233h184zM150 0h234q-59 577 -40 1120h-164q5 -608 -30 -1120z" />
<glyph unicode="j" horiz-adv-x="734" d="M584 1323l-10 233h-164l-10 -233h184zM367 1115l-48 -1020q-3 -72 -10.5 -117.5t-18.5 -77t-34 -47t-49.5 -23t-72.5 -10.5h-79l-5 -276l100 -2q180 7 263.5 111t87.5 319l40 1140z" />
<glyph unicode="k" horiz-adv-x="1324" d="M395 0l-30 527l429 -527h380l-619 596l424 524h-235l-379 -443l10 879h-185l-40 -1556h245z" />
<glyph unicode="l" horiz-adv-x="700" d="M550 0v228h-216q4 538 40 1238h-174q-41 -784 -50 -1466h400z" />
<glyph unicode="m" horiz-adv-x="1985" d="M1835 0l-20 676q0 226 -95 348.5t-270 122.5q-127 0 -214 -58t-157 -184q-41 116 -135.5 179t-218.5 63q-237 0 -360 -201l20 174h-185l-50 -1120h255l-20 633q0 166 89 280t228 114q119 0 176 -77.5t57 -239.5l-90 -710h255l30 633q8 172 84.5 278t214.5 106 q113 0 157 -74.5t44 -242.5l-70 -700h275z" />
<glyph unicode="n" horiz-adv-x="1308" d="M1158 0l-30 676q-20 471 -401 471q-55 0 -108 -13t-100.5 -38t-80 -46.5t-73.5 -53.5v134h-185l-30 -1130h255l-30 643q0 168 83 261t248 93q121 0 174.5 -77.5t53.5 -239.5l-40 -680h264z" />
<glyph unicode="o" d="M664 1147q-241 0 -377.5 -156t-136.5 -432q0 -275 136.5 -431.5t377.5 -156.5q240 0 377 156.5t137 431.5q0 276 -137 432t-377 156zM664 1011q147 0 233 -113.5t86 -306.5q0 -77 -15 -131.5t-40.5 -87.5t-67.5 -51.5t-87 -25t-109 -6.5q-65 0 -110.5 6.5t-87.5 25 t-67 51.5t-40 87.5t-15 131.5q0 195 86 307.5t234 112.5z" />
<glyph unicode="p" horiz-adv-x="1360" d="M385 -426l8 594q114 -197 358 -197q204 0 331.5 162.5t127.5 425.5t-127.5 425.5t-331.5 162.5q-244 0 -358 -197l31 153h-185v-843l-89 -686h235zM1092 591q0 -100 -19 -163.5t-60.5 -97t-93 -45t-130.5 -11.5q-80 0 -134 12t-99.5 44.5t-67.5 97t-22 163.5 q0 203 83.5 318.5t229.5 115.5t229.5 -115.5t83.5 -318.5z" />
<glyph unicode="q" horiz-adv-x="1488" d="M1171 -423l167 141l-226 216l63 1186h-178l-30 -170q-114 197 -359 197q-204 0 -331 -162.5t-127 -425.5t127 -425.5t331 -162.5q245 0 359 197l-56 -594zM272 585q0 203 83.5 318.5t229.5 115.5t230 -115.5t84 -318.5q0 -80 -15 -136t-40 -89t-68 -51.5t-87 -24.5 t-109 -6q-81 0 -131.5 10t-94 41.5t-63 94t-19.5 161.5z" />
<glyph unicode="r" horiz-adv-x="979" d="M828 928v189q-53 10 -83 10q-180 0 -347 -131v114h-170q11 -365 -2.5 -566.5t-75.5 -543.5h288l-40 560q0 393 293 393q52 0 81 -4.5t56 -20.5z" />
<glyph unicode="s" horiz-adv-x="1156" d="M946 933v154q-152 60 -358 60t-318 -86t-112 -244q0 -127 74 -192.5t249 -102.5l64 -15q172 -38 195 -64q25 -29 57 -88q0 -150 -250 -150q-194 0 -397 106v-270q214 -70 393 -70q215 0 339 91t124 247q0 136 -81.5 208t-279.5 114l-63 14q-147 33 -201.5 74t-54.5 116 q0 84 74 131t210 47q179 0 336 -80z" />
<glyph unicode="t" horiz-adv-x="999" d="M285 1120h-135v-143h135l-10 -608q0 -208 85 -288.5t300 -80.5h189v274h-189q-80 0 -118.5 16t-55 61t-16.5 138l10 488h259v143h-259l10 278h-195z" />
<glyph unicode="u" horiz-adv-x="1248" d="M150 1120v-678q0 -231 100 -351t293 -120q229 0 361 201l-10 -172h184l20 1120h-204l-20 -475q-10 -167 -92.5 -260.5t-229.5 -93.5q-121 0 -179.5 78t-68.5 240v511h-154z" />
<glyph unicode="v" horiz-adv-x="1390" d="M830 0l410 1120h-195l-350 -820l-350 820h-195l410 -1120h270z" />
<glyph unicode="w" horiz-adv-x="1803" d="M690 0l212 508l201 -508h257l293 1120h-184l-229 -784l-210 414h-257l-209 -414l-230 784h-184l293 -1120h247z" />
<glyph unicode="x" horiz-adv-x="1426" d="M711 661l-307 459h-197l388 -584l-445 -536h297l276 390l256 -390h297l-436 525l395 595h-187z" />
<glyph unicode="y" horiz-adv-x="1390" d="M1045 1120l-304 -651l-396 651h-195l479 -1027l-79 -159q-32 -40 -49 -58.5t-43 -40t-54 -29.5t-65 -8h-128v-244h167q67 0 113 12.5t94 48.5t91 104t92 177l472 1224h-195z" />
<glyph unicode="z" horiz-adv-x="1209" d="M862 983l-712 -715v-268h899v247h-622l632 705v168h-864v-137h667z" />
<glyph unicode="{" horiz-adv-x="1059" d="M928 -143h-68q-56 1 -94 9t-62 21t-38 38.5t-19.5 52.5t-9.5 72l4 248q-7 142 -47.5 211.5t-147.5 97.5q112 23 158 93.5t49 226.5l4 248q1 50 4 81.5t13 58t24 40t42 24t61.5 14.5t86.5 6h68l3 144h-62q-87 -2 -146.5 -9t-109.5 -23t-79.5 -40.5t-50.5 -65.5t-29.5 -94 t-9.5 -129l-4 -240q-3 -147 -56.5 -199.5t-198.5 -58.5h-61l-2 -144h61q139 -3 188.5 -60.5t56.5 -211.5l-4 -238q2 -77 10 -130t27 -97t47.5 -70t75.5 -44.5t106.5 -26.5t145.5 -10h64v205z" />
<glyph unicode="|" horiz-adv-x="510" d="M240 1565l-90 -2048h190l30 1010l40 1038h-170z" />
<glyph unicode="}" horiz-adv-x="911" d="M117 -334h63q129 0 206 15.5t126 59t66.5 112t17.5 182.5v239q0 151 54 209t196 58h62v143h-62q-142 0 -196 57.5t-54 206.5v240q0 114 -17.5 182.5t-66.5 111.5t-126 58.5t-206 15.5h-63v-143h70q140 0 182.5 -43.5t42.5 -185.5v-248q0 -156 45 -227.5t156 -96.5 q-111 -27 -156 -98t-45 -217v-248q0 -75 -8.5 -117t-34.5 -68.5t-67.5 -35t-114.5 -8.5h-70v-154z" />
<glyph unicode="~" horiz-adv-x="1582" d="M1432 659v158q-103 -84 -187.5 -122t-170.5 -38q-93 0 -249 62l-37 14q-147 60 -257 60q-97 0 -186.5 -34.5t-194.5 -113.5v-208q135 114 186 148q95 62 172 62q95 0 249 -82q8 -2 22 -8q9 -3 16 -6q146 -89 256 -89q56 0 121.5 28.5t103.5 54t126 92.5q20 14 30 22z" />
<glyph unicode="&#xa1;" horiz-adv-x="601" d="M180 1533l-30 -274h243l-30 274h-183zM385 1015l-202 -7l-9 -357l14 -655l263 8l-34 655z" />
<glyph unicode="&#xa2;" horiz-adv-x="1196" d="M1044 919l2 142q-129 62 -276 73l4 287l-102 2l-5 -287q-242 -18 -377 -168.5t-140 -408.5q-4 -258 126 -413.5t370 -179.5l-5 -288l102 -2l5 284q150 12 280 67l5 250q-146 -74 -281 -81l15 814q135 -7 277 -91zM664 1008l-14 -806q-146 20 -226.5 114t-78.5 239 q4 203 87.5 320.5t231.5 132.5z" />
<glyph unicode="&#xa3;" horiz-adv-x="1313" d="M1158 1261l5 182q-165 63 -289 65q-235 -6 -344 -121.5t-116 -374.5l-7 -238l-199 3l-3 -123l199 -3l-12 -435l-236 4l-6 -220l993 -17l6 220l-557 9l12 435l391 -7l3 123l-391 7l6 215q4 142 32 218.5t83.5 107.5t158.5 37q118 -1 271 -87z" />
<glyph unicode="&#xa4;" horiz-adv-x="1418" d="M1154 1202l-207 -209q-118 74 -238 74q-128 0 -235 -76l-207 207l-115 -115l207 -206q-76 -112 -76 -236q0 -113 74 -238l-207 -206l113 -115l207 207q122 -74 239 -74q120 0 236 78l207 -207l114 113l-209 207q78 112 78 235q0 122 -73 240l206 206zM978 643 q0 -194 -269 -194q-270 0 -270 194q0 111 79 188.5t191 77.5q114 0 191.5 -77t77.5 -189z" />
<glyph unicode="&#xa5;" horiz-adv-x="1457" d="M838 578v51l84 155h331v123h-264l318 586h-211l-367 -700l-369 700h-210l307 -586h-264v-123h332l104 -155v-51h-416v-163h416l-30 -415h261l-20 415h413v163h-415z" />
<glyph unicode="&#xa6;" horiz-adv-x="470" d="M410 1565h-170l-39 -932h170zM200 526l-50 -1009h190l30 1009h-170z" />
<glyph unicode="&#xa7;" horiz-adv-x="1138" d="M887 1298v164q-156 58 -305 58q-165 0 -265.5 -79.5t-100.5 -209.5q0 -137 118 -225q-184 -99 -184 -283q0 -102 64 -178q66 -79 278 -197l25 -14q221 -123 221 -205q0 -72 -53.5 -101t-161.5 -29q-119 0 -293 78v-214q174 -58 315 -58q173 0 275 84t102 226 q0 126 -119 225q185 106 185 283q0 101 -65 178q-68 79 -277 196l-40 23q-206 116 -206 205q0 71 54 111t151 40q115 0 282 -78zM437 960q246 -134 318 -201q71 -68 71 -143q0 -93 -125 -182q-251 135 -319 202q-70 66 -70 142q0 91 125 182z" />
<glyph unicode="&#xa8;" horiz-adv-x="937" d="M368 1350v217h-218v-217h218zM787 1350v217h-218v-217h218z" />
<glyph unicode="&#xa9;" horiz-adv-x="1782" d="M891 1485q-305 0 -524 -219q-217 -217 -217 -525q0 -305 217 -522q219 -219 524 -219t524 219q217 217 217 522q0 308 -217 525q-219 219 -524 219zM891 1382q265 0 453 -188q186 -188 186 -453q0 -275 -186 -420q-204 -139 -453 -139q-247 0 -451 139q-190 170 -190 420 q0 263 190 453q188 188 451 188zM1190 1038v99q-133 55 -274 55q-216 0 -341.5 -121t-125.5 -330q0 -208 125.5 -330t341.5 -122q144 0 274 57v187q-127 -65 -252 -65q-147 0 -236.5 83t-89.5 190q0 160 85 261t231 101q132 0 262 -65z" />
<glyph unicode="&#xaa;" horiz-adv-x="1012" d="M860 717v448q0 179 -89.5 267t-272.5 88q-140 0 -287 -56v-127q138 68 266 68q234 0 234 -182v-4h-182q-379 0 -379 -273q0 -113 76 -180.5t204 -67.5q189 0 281 131v-112h149zM701 1169v-29q0 -114 -65 -186t-169 -72q-82 0 -131 38.5t-49 102.5q0 79 63 113 q63 33 224 33h127zM862 469v123h-688v-123h688z" />
<glyph unicode="&#xab;" horiz-adv-x="1261" d="M150 519l454 -434l48 229l-291 279l310 257l7 191l-484 -402zM584 504l454 -434l48 229l-292 278l311 258l6 191l-483 -402z" />
<glyph unicode="&#xac;" horiz-adv-x="1612" d="M1264 692l-50 -405h248l-30 575h-1282v-190z" />
<glyph unicode="&#xad;" horiz-adv-x="846" d="M689 488l7 165l-539 -10l-7 -164z" />
<glyph unicode="&#xae;" horiz-adv-x="1782" d="M891 1485q-305 0 -524 -219q-217 -217 -217 -525q0 -305 217 -522q219 -219 524 -219t524 219q217 217 217 522q0 308 -217 525q-219 219 -524 219zM891 1382q265 0 453 -174q186 -174 186 -418t-186 -416q-189 -175 -453 -175q-262 0 -451 175q-190 176 -190 416 q0 242 190 418q187 174 451 174zM586 338h205v356h56q14 0 51 -25q36 -26 95 -122l129 -209h172l-137 223q-47 74 -79 112q-36 39 -58 46q96 17 148.5 73t52.5 142q0 240 -350 240h-285v-836zM791 1121h123q108 0 152.5 -31.5t44.5 -107.5q0 -75 -43.5 -106t-153.5 -31h-123 v276z" />
<glyph unicode="&#xaf;" horiz-adv-x="898" d="M748 1378v148h-598v-148h598z" />
<glyph unicode="&#xb0;" horiz-adv-x="934" d="M467 1520q-133 0 -225 -93t-92 -227q0 -135 90 -225t225 -90q134 0 226.5 91.5t92.5 223.5q0 135 -92 225q-89 95 -225 95zM467 1441q79 0 134.5 -51t55.5 -123t-55 -121.5t-135 -49.5t-135 49.5t-55 121.5q0 73 55 123.5t135 50.5z" />
<glyph unicode="&#xb1;" horiz-adv-x="1582" d="M707 897h-557v-170h557v-387h168v387h557v170h-557v387h-168v-387zM1432 0v190h-1282v-190h1282z" />
<glyph unicode="&#xb2;" horiz-adv-x="898" d="M324 833l87 75q194 166 244 217q87 90 87 155q0 108 -87.5 174t-231.5 66q-111 0 -267 -56v-123q143 70 246 70q85 0 137 -40.5t52 -106.5q0 -13 -6.5 -27.5t-22.5 -34t-33.5 -37.5t-50.5 -47.5t-62 -54.5t-78.5 -68t-90.5 -79q-49 -43 -97 -87v-161h598v165h-424z" />
<glyph unicode="&#xb3;" horiz-adv-x="919" d="M159 859l-9 -165q141 -41 252 -41q177 0 272 67t95 191q0 82 -50.5 136.5t-142.5 72.5q82 18 127 66t45 117q0 99 -84.5 158t-228.5 59q-108 0 -256 -35v-115q143 41 223 41q95 0 145 -30.5t50 -88.5q0 -60 -48.5 -91.5t-142.5 -31.5h-94v-108h86q219 0 219 -150 q0 -65 -50 -85t-170 -20q-136 0 -238 53z" />
<glyph unicode="&#xb4;" horiz-adv-x="833" d="M320 1320l363 418h-221l-312 -418h170z" />
<glyph unicode="&#xb5;" horiz-adv-x="1429" d="M354 -426l-10 553q84 -156 287 -156q192 0 293 158q30 -158 166 -158q35 0 92 36q55 36 97 59v148q-34 -14 -44 -17q-17 -6 -25 -6q-112 7 -112 67l10 862h-184l-10 -443q0 -336 -297 -336q-135 0 -204 74t-69 219l-10 496l-184 -10l20 -1546h184z" />
<glyph unicode="&#xb6;" horiz-adv-x="1433" d="M1063 1493h-438q-215 0 -345 -116t-130 -306q0 -87 33 -165t85 -130t109.5 -85t112.5 -42l-70 -846h322v1567h180v-1567h361z" />
<glyph unicode="&#xb7;" horiz-adv-x="511" d="M361 584v254h-211v-254h211z" />
<glyph unicode="&#xb8;" horiz-adv-x="714" d="M455 0h-119q88 -119 88 -178q0 -94 -119 -94q-92 0 -155 32v-131q86 -24 176 -24q238 0 238 180q0 91 -109 215z" />
<glyph unicode="&#xb9;" horiz-adv-x="872" d="M722 668v184h-205v651h-137l-230 -39v-116l223 41v-537h-204v-184h553z" />
<glyph unicode="&#xba;" horiz-adv-x="1072" d="M537 1520q-179 0 -283 -110.5t-104 -301.5q0 -190 104 -300t283 -110t282 109.5t103 300.5t-103 301.5t-282 110.5zM537 1442q106 0 168 -67.5t62 -183.5q0 -113 -62.5 -180.5t-167.5 -67.5t-168 67.5t-63 180.5q0 115 63 183t168 68zM881 469v123h-688v-123h688z" />
<glyph unicode="&#xbb;" horiz-adv-x="1251" d="M465 609l-315 -252l28 -233l490 393l-33 124l-447 442l-10 -191zM898 586l-315 -252l28 -233l490 393l-33 124l-447 442l-10 -191z" />
<glyph unicode="&#xbc;" horiz-adv-x="1972" d="M659 -29l932 1549h-160l-932 -1549h160zM722 668v110h-205v725h-137l-230 -39v-116l223 41v-611h-204v-110h553zM1129 188h414v-186h144v186h135v109h-135v540h-166l-392 -528v-121zM1234 297l309 419v-419h-309z" />
<glyph unicode="&#xbd;" horiz-adv-x="1981" d="M609 -29l932 1549h-160l-932 -1549h160zM722 668v110h-205v725h-137l-230 -39v-116l223 41v-611h-204v-110h553zM1407 116l87 75q331 283 331 423q0 108 -87.5 174t-231.5 66q-111 0 -267 -56v-123q143 70 246 70q85 0 137 -40.5t52 -106.5q0 -94 -344 -399 q-49 -43 -97 -87v-110h598v114h-424z" />
<glyph unicode="&#xbe;" horiz-adv-x="1960" d="M150 815v-121q141 -41 252 -41q177 0 272 67t95 191q0 82 -50.5 136.5t-142.5 72.5q82 18 127 66t45 117q0 99 -84.5 158t-228.5 59q-108 0 -256 -35v-115q143 41 223 41q95 0 145 -30.5t50 -88.5q0 -60 -48.5 -91.5t-142.5 -31.5h-94v-108h86q219 0 219 -150 q0 -70 -60.5 -109.5t-168.5 -39.5q-136 0 -238 53zM687 -29l932 1549h-160l-932 -1549h160zM1117 188h414v-186h144v186h135v109h-135v540h-166l-392 -528v-121zM1222 297l309 419v-419h-309z" />
<glyph unicode="&#xbf;" horiz-adv-x="1097" d="M501 1493v-254h202v254h-202zM507 1092v-123q0 -95 -13 -135q-16 -48 -94 -125l-88 -86q-88 -85 -125 -154t-37 -145q0 -159 112 -256t296 -97q203 0 389 113v248q-197 -137 -354 -137q-108 0 -174 55t-66 144q0 95 109 196l90 88q44 49 58.5 66.5t32 49t21 61t3.5 81.5 v156h-160z" />
<glyph unicode="&#xc0;" horiz-adv-x="1668" d="M721 1924h273l-282 374h-197zM423 0l76 243h673l56 -243h290l-589 1493h-189l-590 -1493h273zM560 481l274 828l275 -828h-549z" />
<glyph unicode="&#xc1;" horiz-adv-x="1668" d="M933 1903l363 418h-221l-312 -418h170zM423 0l76 243h673l56 -243h290l-589 1493h-189l-590 -1493h273zM560 481l274 828l275 -828h-549z" />
<glyph unicode="&#xc2;" horiz-adv-x="1668" d="M665 1502l180 245l180 -245h139l-245 376h-148l-245 -376h139zM423 0l76 243h673l56 -243h290l-589 1493h-189l-590 -1493h273zM560 481l274 828l275 -828h-549z" />
<glyph unicode="&#xc3;" horiz-adv-x="1668" d="M784 2001l57 -55q68 -61 139 -61q91 0 142 73.5t53 208.5h-125q-1 -81 -20 -118q-18 -37 -56 -37q-26 0 -68 39l-57 55q-68 61 -139 61q-91 0 -142 -73.5t-53 -208.5h125q1 80 20 119q18 36 56 36q26 0 68 -39zM423 0l76 243h673l56 -243h290l-589 1493h-189l-590 -1493 h273zM560 481l274 828l275 -828h-549z" />
<glyph unicode="&#xc4;" horiz-adv-x="1668" d="M744 1625v217h-218v-217h218zM1163 1625v217h-218v-217h218zM423 0l76 243h673l56 -243h290l-589 1493h-189l-590 -1493h273zM560 481l274 828l275 -828h-549z" />
<glyph unicode="&#xc5;" horiz-adv-x="1668" d="M1119 1799q0 115 -79.5 194.5t-194.5 79.5t-194.5 -79.5t-79.5 -194.5t79.5 -195t194.5 -80t194.5 80t79.5 195zM997 1799q0 -64 -44 -108t-108 -44q-65 0 -108.5 43.5t-43.5 108.5q0 64 43.5 107.5t108.5 43.5q64 0 108 -44t44 -107zM423 0l76 243h673l56 -243h290 l-589 1493h-189l-590 -1493h273zM560 481l274 828l275 -828h-549z" />
<glyph unicode="&#xc6;" horiz-adv-x="2173" d="M103 0h375l-10 263h528v-263h963v260h-760v281h711v170h-711v612h741v170h-1212zM996 431h-459l330 904h129v-904z" />
<glyph unicode="&#xc7;" horiz-adv-x="1504" d="M1354 1378v-213q-202 189 -463 189q-256 0 -392 -156.5t-136 -452.5q4 -254 133.5 -361t394.5 -107q261 0 463 189v-351q-201 -137 -449 -144q85 -104 85 -186q0 -180 -238 -180q-90 0 -176 24v131q63 -32 155 -32q119 0 119 94q0 53 -71 154q-295 31 -462 234.5 t-167 534.5q0 360 195 567.5t534 207.5q267 0 475 -142z" />
<glyph unicode="&#xc8;" horiz-adv-x="1262" d="M475 1972h273l-282 374h-197zM1112 0v310h-760v401h711v170h-711v442h742v170h-944v-1493h962z" />
<glyph unicode="&#xc9;" horiz-adv-x="1262" d="M687 1951l363 418h-221l-312 -418h170zM1112 0v310h-760v401h711v170h-711v442h742v170h-944v-1493h962z" />
<glyph unicode="&#xca;" horiz-adv-x="1262" d="M419 1550l180 245l180 -245h139l-245 376h-148l-245 -376h139zM1112 0v310h-760v401h711v170h-711v442h742v170h-944v-1493h962z" />
<glyph unicode="&#xcb;" horiz-adv-x="1262" d="M498 1673v217h-218v-217h218zM917 1673v217h-218v-217h218zM1112 0v310h-760v401h711v170h-711v442h742v170h-944v-1493h962z" />
<glyph unicode="&#xcc;" horiz-adv-x="542" d="M157 2022h273l-282 374h-197zM150 0h242q-12 225 -17.5 455.5t-8.5 582t-4 455.5h-172q-2 -124 -6 -365t-6.5 -390t-9.5 -356.5t-18 -381.5z" />
<glyph unicode="&#xcd;" horiz-adv-x="542" d="M369 2001l363 418h-221l-312 -418h170zM150 0h242q-12 225 -17.5 455.5t-8.5 582t-4 455.5h-172q-2 -124 -6 -365t-6.5 -390t-9.5 -356.5t-18 -381.5z" />
<glyph unicode="&#xce;" horiz-adv-x="542" d="M101 1600l180 245l180 -245h139l-245 376h-148l-245 -376h139zM150 0h242q-12 225 -17.5 455.5t-8.5 582t-4 455.5h-172q-2 -124 -6 -365t-6.5 -390t-9.5 -356.5t-18 -381.5z" />
<glyph unicode="&#xcf;" horiz-adv-x="542" d="M180 1723v217h-218v-217h218zM599 1723v217h-218v-217h218zM150 0h242q-12 225 -17.5 455.5t-8.5 582t-4 455.5h-172q-2 -124 -6 -365t-6.5 -390t-9.5 -356.5t-18 -381.5z" />
<glyph unicode="&#xd0;" horiz-adv-x="1771" d="M134 844v-144h201v-700h416q432 0 635.5 181t203.5 567q0 384 -203 564.5t-636 180.5h-416v-649h-201zM538 1327h243q309 0 452.5 -139.5t143.5 -439.5q0 -60 -5.5 -110t-17.5 -90.5t-27.5 -72.5t-41 -56.5t-52 -42.5t-65 -30.5t-76.5 -20t-91 -12t-103 -6t-117 -1.5 h-243v394h336v144h-336v483z" />
<glyph unicode="&#xd1;" horiz-adv-x="1450" d="M676 2099l57 -55q68 -61 139 -61q91 0 142 73.5t53 208.5h-125q-1 -81 -20 -118q-18 -37 -56 -37q-26 0 -68 39l-57 55q-68 61 -139 61q-91 0 -142 -73.5t-53 -208.5h125q1 80 20 119q18 36 56 36q26 0 68 -39zM406 0l-60 1249l662 -1249h292v1493h-186l-30 -1209 l-642 1179h-252l-40 -1463h256z" />
<glyph unicode="&#xd2;" horiz-adv-x="1682" d="M717 2022h273l-282 374h-197zM842 1520q-315 0 -503.5 -210.5t-188.5 -564.5t188.5 -564t503.5 -210q314 0 502 210.5t188 563.5q0 354 -188 564.5t-502 210.5zM842 1356q220 0 348.5 -164.5t128.5 -446.5q0 -113 -32.5 -190.5t-97.5 -120.5t-148 -61t-199 -18t-199.5 18 t-149 61t-98 120.5t-32.5 190.5q0 282 129.5 446.5t349.5 164.5z" />
<glyph unicode="&#xd3;" horiz-adv-x="1682" d="M929 2001l363 418h-221l-312 -418h170zM842 1520q-315 0 -503.5 -210.5t-188.5 -564.5t188.5 -564t503.5 -210q314 0 502 210.5t188 563.5q0 354 -188 564.5t-502 210.5zM842 1356q220 0 348.5 -164.5t128.5 -446.5q0 -113 -32.5 -190.5t-97.5 -120.5t-148 -61t-199 -18 t-199.5 18t-149 61t-98 120.5t-32.5 190.5q0 282 129.5 446.5t349.5 164.5z" />
<glyph unicode="&#xd4;" horiz-adv-x="1682" d="M661 1600l180 245l180 -245h139l-245 376h-148l-245 -376h139zM842 1520q-315 0 -503.5 -210.5t-188.5 -564.5t188.5 -564t503.5 -210q314 0 502 210.5t188 563.5q0 354 -188 564.5t-502 210.5zM842 1356q220 0 348.5 -164.5t128.5 -446.5q0 -113 -32.5 -190.5 t-97.5 -120.5t-148 -61t-199 -18t-199.5 18t-149 61t-98 120.5t-32.5 190.5q0 282 129.5 446.5t349.5 164.5z" />
<glyph unicode="&#xd5;" horiz-adv-x="1682" d="M780 2099l57 -55q68 -61 139 -61q91 0 142 73.5t53 208.5h-125q-1 -81 -20 -118q-18 -37 -56 -37q-26 0 -68 39l-57 55q-68 61 -139 61q-91 0 -142 -73.5t-53 -208.5h125q1 80 20 119q18 36 56 36q26 0 68 -39zM842 1520q-315 0 -503.5 -210.5t-188.5 -564.5t188.5 -564 t503.5 -210q314 0 502 210.5t188 563.5q0 354 -188 564.5t-502 210.5zM842 1356q220 0 348.5 -164.5t128.5 -446.5q0 -113 -32.5 -190.5t-97.5 -120.5t-148 -61t-199 -18t-199.5 18t-149 61t-98 120.5t-32.5 190.5q0 282 129.5 446.5t349.5 164.5z" />
<glyph unicode="&#xd6;" horiz-adv-x="1682" d="M740 1723v217h-218v-217h218zM1159 1723v217h-218v-217h218zM842 1520q-315 0 -503.5 -210.5t-188.5 -564.5t188.5 -564t503.5 -210q314 0 502 210.5t188 563.5q0 354 -188 564.5t-502 210.5zM842 1356q220 0 348.5 -164.5t128.5 -446.5q0 -113 -32.5 -190.5 t-97.5 -120.5t-148 -61t-199 -18t-199.5 18t-149 61t-98 120.5t-32.5 190.5q0 282 129.5 446.5t349.5 164.5z" />
<glyph unicode="&#xd7;" horiz-adv-x="1405" d="M697 832l-359 359l-168 -171l356 -359l-376 -377l168 -171l379 379l379 -379l169 171l-377 377l387 389l-169 171z" />
<glyph unicode="&#xd8;" horiz-adv-x="1682" d="M1240 1583l-45 -152q160 -92 248.5 -269.5t88.5 -416.5q0 -353 -188 -563.5t-502 -210.5q-47 0 -82 4l-18 -59l-230 8l37 105q-188 82 -293.5 269t-105.5 447q0 354 188.5 564.5t503.5 210.5q115 0 214 -30l34 98zM666 368l334 962q-73 26 -158 26q-220 0 -349.5 -164.5 t-129.5 -446.5q0 -174 77 -262.5t226 -114.5zM1140 1247l-267 -892q108 2 186.5 22t139 63.5t90.5 119.5t30 185q0 166 -46.5 294.5t-132.5 207.5z" />
<glyph unicode="&#xd9;" horiz-adv-x="1443" d="M597 2022h273l-282 374h-197zM150 1493v-932q0 -292 144.5 -441t427.5 -149q282 0 426.5 149t144.5 441v932h-213l19 -767q6 -236 -87 -343.5t-290 -107.5q-198 0 -291.5 107.5t-87.5 343.5l20 767h-213z" />
<glyph unicode="&#xda;" horiz-adv-x="1443" d="M809 2001l363 418h-221l-312 -418h170zM150 1493v-932q0 -292 144.5 -441t427.5 -149q282 0 426.5 149t144.5 441v932h-213l19 -767q6 -236 -87 -343.5t-290 -107.5q-198 0 -291.5 107.5t-87.5 343.5l20 767h-213z" />
<glyph unicode="&#xdb;" horiz-adv-x="1443" d="M541 1600l180 245l180 -245h139l-245 376h-148l-245 -376h139zM150 1493v-932q0 -292 144.5 -441t427.5 -149q282 0 426.5 149t144.5 441v932h-213l19 -767q6 -236 -87 -343.5t-290 -107.5q-198 0 -291.5 107.5t-87.5 343.5l20 767h-213z" />
<glyph unicode="&#xdc;" horiz-adv-x="1443" d="M620 1723v217h-218v-217h218zM1039 1723v217h-218v-217h218zM150 1493v-932q0 -292 144.5 -441t427.5 -149q282 0 426.5 149t144.5 441v932h-213l19 -767q6 -236 -87 -343.5t-290 -107.5q-198 0 -291.5 107.5t-87.5 343.5l20 767h-213z" />
<glyph unicode="&#xdd;" horiz-adv-x="1559" d="M866 2001l363 418h-221l-312 -418h170zM638 0h273v511l498 982h-217l-411 -764l-414 764h-217l488 -982v-511z" />
<glyph unicode="&#xde;" horiz-adv-x="1264" d="M352 0v338h254q251 0 379.5 113t128.5 333t-128.5 332.5t-379.5 112.5h-254v264h-202v-1493h202zM352 1063h254q142 0 218.5 -72.5t76.5 -206.5t-77 -207t-218 -73h-254v559z" />
<glyph unicode="&#xdf;" horiz-adv-x="1422" d="M490 0l-50 1133q20 169 87 239.5t199 70.5q38 0 60.5 -1.5t50.5 -6.5t46.5 -15.5t41 -28.5t41 -45.5t39.5 -66.5t43 -91q-98 -14 -164 -43t-101 -73t-49 -94t-14 -118q0 -53 20.5 -106.5t41.5 -84t60 -80.5q7 -9 11 -14l82 -55q101 -62 131 -104q29 -43 29 -85 q0 -61 -60 -93.5t-176 -32.5q-127 0 -285 59v-244q149 -49 273 -49q211 0 323.5 91.5t112.5 263.5q0 53 -10 91t-38.5 79.5t-79.5 83t-134 94.5l-57 37q-65 42 -94 82.5t-29 87.5q0 96 84 153.5t235 65.5q-3 224 -112.5 340t-317.5 116q-218 0 -337.5 -109.5t-119.5 -309.5 l-60 -1137h277z" />
<glyph unicode="&#xe0;" horiz-adv-x="1246" d="M527 1649h273l-282 374h-197zM1096 0v639q0 256 -120 382t-363 126q-179 0 -381 -78v-150q169 92 362 92q159 -10 238.5 -83.5t79.5 -202.5v-18h-258q-504 0 -504 -381q0 -162 101.5 -258.5t273.5 -96.5q258 0 387 189v-160h184zM809 572v-41q0 -90 -13 -145t-46.5 -85 t-78 -40t-118.5 -10q-57 0 -93.5 4t-72 16t-56 38t-27.5 67q1 73 29 113.5t102 61.5t208 21h166z" />
<glyph unicode="&#xe1;" horiz-adv-x="1246" d="M739 1628l363 418h-221l-312 -418h170zM1096 0v639q0 256 -120 382t-363 126q-179 0 -381 -78v-150q169 92 362 92q159 -10 238.5 -83.5t79.5 -202.5v-18h-258q-504 0 -504 -381q0 -162 101.5 -258.5t273.5 -96.5q258 0 387 189v-160h184zM809 572v-41q0 -90 -13 -145 t-46.5 -85t-78 -40t-118.5 -10q-57 0 -93.5 4t-72 16t-56 38t-27.5 67q1 73 29 113.5t102 61.5t208 21h166z" />
<glyph unicode="&#xe2;" horiz-adv-x="1246" d="M471 1227l180 245l180 -245h139l-245 376h-148l-245 -376h139zM1096 0v639q0 256 -120 382t-363 126q-179 0 -381 -78v-150q169 92 362 92q159 -10 238.5 -83.5t79.5 -202.5v-18h-258q-504 0 -504 -381q0 -162 101.5 -258.5t273.5 -96.5q258 0 387 189v-160h184zM809 572 v-41q0 -90 -13 -145t-46.5 -85t-78 -40t-118.5 -10q-57 0 -93.5 4t-72 16t-56 38t-27.5 67q1 73 29 113.5t102 61.5t208 21h166z" />
<glyph unicode="&#xe3;" horiz-adv-x="1246" d="M590 1726l57 -55q68 -61 139 -61q91 0 142 73.5t53 208.5h-125q-1 -81 -20 -118q-18 -37 -56 -37q-26 0 -68 39l-57 55q-68 61 -139 61q-91 0 -142 -73.5t-53 -208.5h125q1 80 20 119q18 36 56 36q26 0 68 -39zM1096 0v639q0 256 -120 382t-363 126q-179 0 -381 -78v-150 q169 92 362 92q159 -10 238.5 -83.5t79.5 -202.5v-18h-258q-504 0 -504 -381q0 -162 101.5 -258.5t273.5 -96.5q258 0 387 189v-160h184zM809 572v-41q0 -90 -13 -145t-46.5 -85t-78 -40t-118.5 -10q-57 0 -93.5 4t-72 16t-56 38t-27.5 67q1 73 29 113.5t102 61.5t208 21 h166z" />
<glyph unicode="&#xe4;" horiz-adv-x="1246" d="M550 1350v217h-218v-217h218zM969 1350v217h-218v-217h218zM1096 0v639q0 256 -120 382t-363 126q-179 0 -381 -78v-150q169 92 362 92q159 -10 238.5 -83.5t79.5 -202.5v-18h-258q-504 0 -504 -381q0 -162 101.5 -258.5t273.5 -96.5q258 0 387 189v-160h184zM809 572 v-41q0 -90 -13 -145t-46.5 -85t-78 -40t-118.5 -10q-57 0 -93.5 4t-72 16t-56 38t-27.5 67q1 73 29 113.5t102 61.5t208 21h166z" />
<glyph unicode="&#xe5;" horiz-adv-x="1246" d="M925 1524q0 115 -79.5 194.5t-194.5 79.5t-194.5 -79.5t-79.5 -194.5t79.5 -195t194.5 -80t194.5 80t79.5 195zM803 1524q0 -64 -44 -108t-108 -44q-65 0 -108.5 43.5t-43.5 108.5q0 64 43.5 107.5t108.5 43.5q64 0 108 -44t44 -107zM1096 0v639q0 256 -120 382t-363 126 q-179 0 -381 -78v-150q169 92 362 92q159 -10 238.5 -83.5t79.5 -202.5v-18h-258q-504 0 -504 -381q0 -162 101.5 -258.5t273.5 -96.5q258 0 387 189v-160h184zM809 572v-41q0 -90 -13 -145t-46.5 -85t-78 -40t-118.5 -10q-57 0 -93.5 4t-72 16t-56 38t-27.5 67 q1 73 29 113.5t102 61.5t208 21h166z" />
<glyph unicode="&#xe6;" horiz-adv-x="2218" d="M2004 576v90q0 128 -58.5 236.5t-172 176.5t-259.5 68q-266 0 -418 -184q-54 88 -160.5 136t-248.5 48q-179 0 -381 -78v-130q169 92 362 92q71 0 133.5 -25.5t101.5 -64t61 -80t22 -76.5v-18h-258q-260 0 -382 -99.5t-122 -341.5q0 -168 105 -261.5t294 -93.5 q287 0 432 240q155 -240 492 -240q66 0 146 20t128 38.5t140 57.5v264q-199 -106 -404 -106q-175 0 -280.5 96t-118.5 235h846zM1819 719h-655q7 60 34.5 117t71.5 104t108 76t138 29q87 0 158.5 -51.5t107.5 -125.5t37 -149zM986 623v-33q0 -186 -89.5 -275.5t-248.5 -89.5 q-111 0 -175.5 46t-64.5 124q0 59 13.5 98.5t39.5 65.5t75.5 40t110.5 19t156 5h183z" />
<glyph unicode="&#xe7;" horiz-adv-x="1186" d="M1036 1077v-162q-157 86 -315 86q-177 0 -272 -117t-95 -325q14 -142 95.5 -201.5t263.5 -69.5q13 0 61.5 -1t69.5 0t59 5t68.5 14t60.5 26l4 -289q-130 -61 -280 -70q86 -105 86 -188q0 -180 -238 -180q-90 0 -176 24v131q63 -32 155 -32q119 0 119 94q0 54 -69 152 q-224 22 -353.5 178t-129.5 407q0 274 150.5 431t412.5 157q173 0 323 -70z" />
<glyph unicode="&#xe8;" d="M549 1649h273l-282 374h-197zM1178 606v70q-19 237 -134.5 349t-343.5 122q-251 0 -395.5 -160t-154.5 -438q0 -264 155.5 -416t425.5 -162q211 0 415 86l-4 254q-47 -25 -94.5 -39.5t-107.5 -20t-93.5 -6.5t-108.5 -1q-80 4 -135 14t-107.5 33t-83.5 62t-50 102t-20 151 h836zM1018 766h-656q0 51 24.5 101.5t67.5 91t108 66t139 25.5q65 0 122.5 -26.5t96.5 -68.5t64.5 -91t33.5 -98z" />
<glyph unicode="&#xe9;" d="M761 1628l363 418h-221l-312 -418h170zM1178 606v70q-19 237 -134.5 349t-343.5 122q-251 0 -395.5 -160t-154.5 -438q0 -264 155.5 -416t425.5 -162q211 0 415 86l-4 254q-47 -25 -94.5 -39.5t-107.5 -20t-93.5 -6.5t-108.5 -1q-80 4 -135 14t-107.5 33t-83.5 62 t-50 102t-20 151h836zM1018 766h-656q0 51 24.5 101.5t67.5 91t108 66t139 25.5q65 0 122.5 -26.5t96.5 -68.5t64.5 -91t33.5 -98z" />
<glyph unicode="&#xea;" d="M493 1227l180 245l180 -245h139l-245 376h-148l-245 -376h139zM1178 606v70q-19 237 -134.5 349t-343.5 122q-251 0 -395.5 -160t-154.5 -438q0 -264 155.5 -416t425.5 -162q211 0 415 86l-4 254q-47 -25 -94.5 -39.5t-107.5 -20t-93.5 -6.5t-108.5 -1q-80 4 -135 14 t-107.5 33t-83.5 62t-50 102t-20 151h836zM1018 766h-656q0 51 24.5 101.5t67.5 91t108 66t139 25.5q65 0 122.5 -26.5t96.5 -68.5t64.5 -91t33.5 -98z" />
<glyph unicode="&#xeb;" d="M572 1350v217h-218v-217h218zM991 1350v217h-218v-217h218zM1178 606v70q-19 237 -134.5 349t-343.5 122q-251 0 -395.5 -160t-154.5 -438q0 -264 155.5 -416t425.5 -162q211 0 415 86l-4 254q-47 -25 -94.5 -39.5t-107.5 -20t-93.5 -6.5t-108.5 -1q-80 4 -135 14 t-107.5 33t-83.5 62t-50 102t-20 151h836zM1018 766h-656q0 51 24.5 101.5t67.5 91t108 66t139 25.5q65 0 122.5 -26.5t96.5 -68.5t64.5 -91t33.5 -98z" />
<glyph unicode="&#xec;" horiz-adv-x="785" d="M356 1264h273l-282 374h-197zM635 0v1120h-184v-1120h184z" />
<glyph unicode="&#xed;" horiz-adv-x="833" d="M320 1220l363 418h-221l-312 -418h170zM443 0v1120h-184v-1120h184z" />
<glyph unicode="&#xee;" horiz-adv-x="938" d="M289 1262l180 245l180 -245h139l-245 376h-148l-245 -376h139zM616 0v1120h-184v-1120h184z" />
<glyph unicode="&#xef;" horiz-adv-x="937" d="M368 1350v217h-218v-217h218zM787 1350v217h-218v-217h218zM559 0v1120h-184v-1120h184z" />
<glyph unicode="&#xf0;" d="M1069 1425l-33 97l-333 -111l-127 145h-228l181 -204l-281 -92l33 -99l319 107l159 -180q-80 10 -112 10q-221 0 -359 -155.5t-138 -405.5q0 -255 141.5 -410.5t372.5 -155.5t372.5 155.5t141.5 410.5q0 173 -57 317t-183 287l-164 186zM875 915q108 -137 108 -378 q0 -53 -8 -93.5t-20.5 -68t-36.5 -46.5t-46.5 -29.5t-60.5 -16t-68 -7t-79 -1.5q-38 0 -62.5 0.5t-56 3.5t-51.5 8t-43.5 14.5t-37.5 23t-29 33t-22.5 45t-12.5 59.5t-5 75q0 195 92.5 303t259.5 108q83 0 179 -33z" />
<glyph unicode="&#xf1;" horiz-adv-x="1308" d="M574 1726l57 -55q68 -61 139 -61q91 0 142 73.5t53 208.5h-125q-1 -81 -20 -118q-18 -37 -56 -37q-26 0 -68 39l-57 55q-68 61 -139 61q-91 0 -142 -73.5t-53 -208.5h125q1 80 20 119q18 36 56 36q26 0 68 -39zM1158 0l-30 676q-20 471 -401 471q-55 0 -108 -13 t-100.5 -38t-80 -46.5t-73.5 -53.5v134h-185l-30 -1130h255l-30 643q0 168 83 261t248 93q121 0 174.5 -77.5t53.5 -239.5l-40 -680h264z" />
<glyph unicode="&#xf2;" d="M540 1649h273l-282 374h-197zM664 1147q-241 0 -377.5 -156t-136.5 -432q0 -275 136.5 -431.5t377.5 -156.5q240 0 377 156.5t137 431.5q0 276 -137 432t-377 156zM664 1011q147 0 233 -113.5t86 -306.5q0 -77 -15 -131.5t-40.5 -87.5t-67.5 -51.5t-87 -25t-109 -6.5 q-65 0 -110.5 6.5t-87.5 25t-67 51.5t-40 87.5t-15 131.5q0 195 86 307.5t234 112.5z" />
<glyph unicode="&#xf3;" d="M752 1628l363 418h-221l-312 -418h170zM664 1147q-241 0 -377.5 -156t-136.5 -432q0 -275 136.5 -431.5t377.5 -156.5q240 0 377 156.5t137 431.5q0 276 -137 432t-377 156zM664 1011q147 0 233 -113.5t86 -306.5q0 -77 -15 -131.5t-40.5 -87.5t-67.5 -51.5t-87 -25 t-109 -6.5q-65 0 -110.5 6.5t-87.5 25t-67 51.5t-40 87.5t-15 131.5q0 195 86 307.5t234 112.5z" />
<glyph unicode="&#xf4;" d="M484 1227l180 245l180 -245h139l-245 376h-148l-245 -376h139zM664 1147q-241 0 -377.5 -156t-136.5 -432q0 -275 136.5 -431.5t377.5 -156.5q240 0 377 156.5t137 431.5q0 276 -137 432t-377 156zM664 1011q147 0 233 -113.5t86 -306.5q0 -77 -15 -131.5t-40.5 -87.5 t-67.5 -51.5t-87 -25t-109 -6.5q-65 0 -110.5 6.5t-87.5 25t-67 51.5t-40 87.5t-15 131.5q0 195 86 307.5t234 112.5z" />
<glyph unicode="&#xf5;" d="M603 1726l57 -55q68 -61 139 -61q91 0 142 73.5t53 208.5h-125q-1 -81 -20 -118q-18 -37 -56 -37q-26 0 -68 39l-57 55q-68 61 -139 61q-91 0 -142 -73.5t-53 -208.5h125q1 80 20 119q18 36 56 36q26 0 68 -39zM664 1147q-241 0 -377.5 -156t-136.5 -432 q0 -275 136.5 -431.5t377.5 -156.5q240 0 377 156.5t137 431.5q0 276 -137 432t-377 156zM664 1011q147 0 233 -113.5t86 -306.5q0 -77 -15 -131.5t-40.5 -87.5t-67.5 -51.5t-87 -25t-109 -6.5q-65 0 -110.5 6.5t-87.5 25t-67 51.5t-40 87.5t-15 131.5q0 195 86 307.5 t234 112.5z" />
<glyph unicode="&#xf6;" d="M563 1350v217h-218v-217h218zM982 1350v217h-218v-217h218zM664 1147q-241 0 -377.5 -156t-136.5 -432q0 -275 136.5 -431.5t377.5 -156.5q240 0 377 156.5t137 431.5q0 276 -137 432t-377 156zM664 1011q147 0 233 -113.5t86 -306.5q0 -77 -15 -131.5t-40.5 -87.5 t-67.5 -51.5t-87 -25t-109 -6.5q-65 0 -110.5 6.5t-87.5 25t-67 51.5t-40 87.5t-15 131.5q0 195 86 307.5t234 112.5z" />
<glyph unicode="&#xf7;" horiz-adv-x="1632" d="M964 889v296h-296v-296h296zM1482 507v220h-1332v-220h1332zM964 50v295h-296v-295h296z" />
<glyph unicode="&#xf8;" horiz-adv-x="1410" d="M246 -94l139 168q127 -103 320 -103q240 0 377 156.5t137 431.5q0 240 -107 395l146 179l-95 79l-139 -168q-133 103 -319 103q-241 0 -377.5 -156t-136.5 -432q0 -239 108 -393l-149 -182zM912 909l-488 -592q-39 88 -39 228q0 211 84.5 328.5t235.5 117.5 q124 0 207 -82zM496 209l487 592q41 -89 41 -242q0 -200 -86 -316t-233 -116q-128 0 -209 82z" />
<glyph unicode="&#xf9;" horiz-adv-x="1248" d="M507 1649h273l-282 374h-197zM150 1120v-678q0 -231 100 -351t293 -120q229 0 361 201l-10 -172h184l20 1120h-204l-20 -475q-10 -167 -92.5 -260.5t-229.5 -93.5q-121 0 -179.5 78t-68.5 240v511h-154z" />
<glyph unicode="&#xfa;" horiz-adv-x="1248" d="M719 1628l363 418h-221l-312 -418h170zM150 1120v-678q0 -231 100 -351t293 -120q229 0 361 201l-10 -172h184l20 1120h-204l-20 -475q-10 -167 -92.5 -260.5t-229.5 -93.5q-121 0 -179.5 78t-68.5 240v511h-154z" />
<glyph unicode="&#xfb;" horiz-adv-x="1248" d="M451 1227l180 245l180 -245h139l-245 376h-148l-245 -376h139zM150 1120v-678q0 -231 100 -351t293 -120q229 0 361 201l-10 -172h184l20 1120h-204l-20 -475q-10 -167 -92.5 -260.5t-229.5 -93.5q-121 0 -179.5 78t-68.5 240v511h-154z" />
<glyph unicode="&#xfc;" horiz-adv-x="1248" d="M530 1350v217h-218v-217h218zM949 1350v217h-218v-217h218zM150 1120v-678q0 -231 100 -351t293 -120q229 0 361 201l-10 -172h184l20 1120h-204l-20 -475q-10 -167 -92.5 -260.5t-229.5 -93.5q-121 0 -179.5 78t-68.5 240v511h-154z" />
<glyph unicode="&#xfd;" horiz-adv-x="1390" d="M695 1628l363 418h-221l-312 -418h170zM1045 1120l-304 -651l-396 651h-195l479 -1027l-79 -159q-32 -40 -49 -58.5t-43 -40t-54 -29.5t-65 -8h-128v-244h167q67 0 113 12.5t94 48.5t91 104t92 177l472 1224h-195z" />
<glyph unicode="&#xfe;" horiz-adv-x="1278" d="M460 -426v594q114 -197 358 -197q204 0 331.5 162.5t127.5 425.5t-127.5 425.5t-331.5 162.5q-244 0 -358 -197v606h-185v-1982h185zM1086 559q0 -203 -83.5 -318.5t-229.5 -115.5t-229.5 115.5t-83.5 318.5t83.5 318.5t229.5 115.5t229.5 -115.5t83.5 -318.5z" />
<glyph unicode="&#xff;" horiz-adv-x="1390" d="M506 1350v217h-218v-217h218zM925 1350v217h-218v-217h218zM1045 1120l-304 -651l-396 651h-195l479 -1027l-79 -159q-32 -40 -49 -58.5t-43 -40t-54 -29.5t-65 -8h-128v-244h167q67 0 113 12.5t94 48.5t91 104t92 177l472 1224h-195z" />
<glyph unicode="&#x152;" horiz-adv-x="2334" d="M2121 1493h-1047q-432 0 -656 -189.5t-224 -555.5q0 -368 223.5 -558t656.5 -190h1065v280h-760v501h731v170h-731v412h742v130zM1177 280h-129q-125 0 -230.5 25.5t-180.5 70t-127.5 104.5t-77.5 127.5t-25 140.5q0 323 157.5 469t483.5 146h129v-1083z" />
<glyph unicode="&#x153;" horiz-adv-x="2306" d="M2094 666v90q0 41 -21.5 92t-65 103.5t-100.5 96t-137 71.5t-166 28q-143 0 -259 -56t-194 -163q-134 219 -417 219q-241 0 -377.5 -156t-136.5 -432q0 -275 136.5 -431.5t377.5 -156.5q278 0 420 219q163 -219 483 -219q210 0 414 86v234q-197 -104 -404 -104 q-52 0 -87 2t-75.5 9t-67 21t-55 37.5t-46 59t-33 84.5t-24 115.5t-11.5 150.5h846zM1909 799h-655q8 36 35.5 76.5t70.5 78.5t108.5 62.5t137.5 24.5q65 0 123.5 -26t96 -64t60 -78.5t23.5 -73.5zM734 1021q147 0 233 -107.5t86 -290.5q0 -184 -86 -291t-233 -107 q-149 0 -234.5 106.5t-85.5 291.5t86 291.5t234 106.5z" />
<glyph unicode="&#x178;" horiz-adv-x="1559" d="M677 1723v217h-218v-217h218zM1096 1723v217h-218v-217h218zM638 0h273v511l498 982h-217l-411 -764l-414 764h-217l488 -982v-511z" />
<glyph unicode="&#x2c6;" horiz-adv-x="938" d="M289 1262l180 245l180 -245h139l-245 376h-148l-245 -376h139z" />
<glyph unicode="&#x2dc;" horiz-adv-x="960" d="M419 1425l57 -55q68 -61 139 -61q91 0 142 73.5t53 208.5h-125q-1 -81 -20 -118q-18 -37 -56 -37q-26 0 -68 39l-57 55q-68 61 -139 61q-91 0 -142 -73.5t-53 -208.5h125q1 80 20 119q18 36 56 36q26 0 68 -39z" />
<glyph unicode="&#x2000;" horiz-adv-x="1209" />
<glyph unicode="&#x2001;" horiz-adv-x="2419" />
<glyph unicode="&#x2002;" horiz-adv-x="1209" />
<glyph unicode="&#x2003;" horiz-adv-x="2419" />
<glyph unicode="&#x2004;" horiz-adv-x="806" />
<glyph unicode="&#x2005;" horiz-adv-x="604" />
<glyph unicode="&#x2006;" horiz-adv-x="403" />
<glyph unicode="&#x2007;" horiz-adv-x="403" />
<glyph unicode="&#x2008;" horiz-adv-x="302" />
<glyph unicode="&#x2009;" horiz-adv-x="483" />
<glyph unicode="&#x200a;" horiz-adv-x="134" />
<glyph unicode="&#x2010;" horiz-adv-x="846" d="M689 488l7 165l-539 -10l-7 -164z" />
<glyph unicode="&#x2011;" horiz-adv-x="846" d="M689 488l7 165l-539 -10l-7 -164z" />
<glyph unicode="&#x2012;" horiz-adv-x="846" d="M689 488l7 165l-539 -10l-7 -164z" />
<glyph unicode="&#x2013;" horiz-adv-x="1324" d="M1174 489v144h-1024v-144h1024z" />
<glyph unicode="&#x2014;" horiz-adv-x="2348" d="M2198 489v144h-2048v-144h2048z" />
<glyph unicode="&#x2018;" horiz-adv-x="618" d="M510 1519h-159l-201 -393v-212h260v212z" />
<glyph unicode="&#x2019;" horiz-adv-x="589" d="M150 939h156l199 386v185h-256v-185z" />
<glyph unicode="&#x201a;" horiz-adv-x="593" d="M150 -238h129l164 320v172h-211v-172z" />
<glyph unicode="&#x201c;" horiz-adv-x="1174" d="M514 1493h-160l-204 -397v-215h262v215zM1024 1493h-160l-204 -397v-215h262v215z" />
<glyph unicode="&#x201d;" horiz-adv-x="1117" d="M150 921h150l191 372v200h-246v-200zM626 921h150l191 372v200h-245v-200z" />
<glyph unicode="&#x201e;" horiz-adv-x="1183" d="M150 -238h162l206 402v216h-265v-216zM665 -238h162l206 402v216h-265v-216z" />
<glyph unicode="&#x2022;" horiz-adv-x="894" d="M150 762q0 -125 86 -211t211 -86t211 86t86 211q0 124 -85.5 209.5t-209.5 85.5q-126 0 -212.5 -85.5t-86.5 -209.5z" />
<glyph unicode="&#x2026;" horiz-adv-x="1986" d="M473 0v364h-323v-364h323zM1154 0v364h-322v-364h322zM1836 0v364h-323v-364h323z" />
<glyph unicode="&#x202f;" horiz-adv-x="483" />
<glyph unicode="&#x2039;" horiz-adv-x="769" d="M150 559l469 -418v191l-301 268l301 268v191l-469 -418v-82z" />
<glyph unicode="&#x203a;" horiz-adv-x="769" d="M451 600l-301 -268v-191l469 418v82l-469 418v-191z" />
<glyph unicode="&#x205f;" horiz-adv-x="604" />
<glyph unicode="&#x20ac;" horiz-adv-x="1467" d="M1317 1215v163q-173 142 -370 142q-236 0 -391 -145t-195 -402h-156l-55 -123h194v-46q-1 -16 -1 -59q0 -40 1 -55v-47h-139l-55 -163h221q31 -224 187 -366.5t389 -142.5q191 0 370 144v301q-102 -106 -186.5 -150.5t-185.5 -44.5q-74 0 -143 29.5t-115.5 72t-76.5 84.5 t-36 73h364l56 163h-446q-3 32 -3 102q0 73 3 105h538l55 123h-577q34 194 136.5 315.5t254.5 121.5q103 0 187.5 -45.5t174.5 -149.5z" />
<glyph unicode="&#x2122;" horiz-adv-x="1641" d="M150 1399h201l-30 -484h174l-30 484h203v94h-518v-94zM751 915h174l-30 484l183 -433h95l175 433l-30 -484h173l-20 578h-170l-174 -326l-164 326h-172z" />
<glyph unicode="&#xe000;" horiz-adv-x="1120" d="M0 1120h1120v-1120h-1120v1120z" />
</font>
</defs>
</svg>
